Obs color format i420Garlic Crispy Potato Skewers. 0. 5.03. ( 3905 Reviews) Super easy. Fairly cheap. The perfect addition to any meat, fish or plant based dish, these British Gems are little golden nuggets of deliciousness! Prep. 10m. * I420 *: If the image is in I420 mode (YYYYYYYY UU VV), ... Vectorize multiplying RGB array by color transform matrix, for image processing. 4. How to convert sRGB to NV12 format using NumPy? 4. How to undistort I420 image data? Efficiently. Hot Network Questions[y/N] y [graph 0 input from stream 0:0 @ 00000000027978a0] w:182 h:188 pixfmt:bgr24 tb:1/25 fr:25/1 sar:0/1 sws_param:flags=2 [auto-inserted scaler 0 @ 0000000004614400] w:iw h:ih flags:'0x4' interl:0 [Parsed_format_0 @ 0000000004628d60] auto-inserting filter 'auto-inserted scaler 0' between the filter 'graph 0 input from stream 0:0' and the ... NV12 OBS vs RGB (Recording vs Streaming) — Raymond Joey Smith | Last.fm. A new version of Last.fm is available, to keep everything running smoothly, please reload the site. Brightness Test.YV12, IYUV , I420, etc... are 4:2:0 too. They are just slightly different ways of arranging and storing the data. 4:2:0 just means the color information, the U,V planes have half width, half height . e.g. for 1920x1080 , the color information (each U, V plane) is only 960x540 But for NVEnc, and 4:2:0 encoding - it expects NV12 pixel format .Legacy Cards Driver Features. DirectShow-compatible VBI pins are provided on the Video Device Capture Filter. VBI data includes Vertical Interval Timecode (VITC) in both the NTSC and PAL worlds. In NTSC, line 21 Closed Captioning (although it is part of the video interval rather than true VBI data), is commonly treated as VBI data. NV12 yuv pixel format. RGB Full: An Overview. AI44 is a palettized YUV format with 8 bits per sample. The CbCr plane is the same 22 width, in bytes, as the Y plane (and of the image), but is half as 23 tall in pixels. yuv to bt709. YUV (Y'CbCr) is a pixel format commonly used in video encoding and still images.Magewell Eco Capture Quad SDI M.2. Magewell Part Number: 11540, Captures SD/HD/3G/2K SDI x 4 + embedded audio Low power consumption.YV12, IYUV , I420, etc... are 4:2:0 too. They are just slightly different ways of arranging and storing the data. 4:2:0 just means the color information, the U,V planes have half width, half height . e.g. for 1920x1080 , the color information (each U, V plane) is only 960x540 But for NVEnc, and 4:2:0 encoding - it expects NV12 pixel format .In this case, I am taking some old home videos from VHS tapes, cropping the noise off the edges, resizing back to original dimensions, doing a bit of deblocking and sharpening just a little to compensate for the softening from deblocking and saving as an MP4 using x264.Video ID : 0 Format : RGB Codec ID : ULRG Codec ID/Info : Ut Video Lossless Codec Codec ID/Hint : Ut Video Duration : 16 s 200 ms Bit rate : 111 Mb/s Width : 2 560 pixels Height : 1 440 pixels Display aspect ratio : 16:9 Frame rate : 30.000 FPS Color space : RGB Bit depth : 8 bits Bits/(Pixel*Frame) : 1.002 Stream size : 214 MiB (95%)DragonFly is an effort to maintain the traditional BSD format — lean, stable code — along with modern features such as lightweight threads, a workable packaging system, and a revised VFS. Underpinning all this work is efficient support for multiple processors, something rare among open source systems. I tried creating a different input file, i.e., an OBS file with: I420 Color Format; Partial Color Range; Neither were particularly successful post-rendering. I may be stuck with the options I have, meaning I might need to alter the PowerPoint itself. Kind regards, VRIn this case, I am taking some old home videos from VHS tapes, cropping the noise off the edges, resizing back to original dimensions, doing a bit of deblocking and sharpening just a little to compensate for the softening from deblocking and saving as an MP4 using x264.NV12 yuv pixel format. RGB Full: An Overview. AI44 is a palettized YUV format with 8 bits per sample. The CbCr plane is the same 22 width, in bytes, as the Y plane (and of the image), but is half as 23 tall in pixels. yuv to bt709. YUV (Y'CbCr) is a pixel format commonly used in video encoding and still images.Search: Yuv Nv12 Sample. About Sample Yuv Nv12It can be helpful to think of NV12 as I420 with the U and V planes interleaved. Here is a graphical representation of NV12. What is nv12 YUV pixel format? NV12 yuv pixel format. The NV12 image format is commonly found as the native format from various machine vision, and other, video cameras.Feb 18, 2022 · OBS Studio Advanced Video Settings; Color Format: I444: I444 or NV12: Color Space: Identical to Input (sRGB on PC, Bt.709/sRGB for Console) Color Range: Identical to Input (Full on PC, Partial on Console) Mar 17, 2022 · · Independent cropping, aspect ratio, color format, resolution, frame rate, de-interlacing and color adjustment settings for each individual stream. Ultra Low Latency Support · Latency of 64 video lines · Partial notification mode in SDK. Timestamp & A/V Synchronization · Hardware based 100ns high resolution clock Independent cropping, aspect ratio, color format, resolution, frame rate, de-interlacing and color adjustment settings for each individual stream Ultra Low Latency Support Latency of 64 video lines Partial notification mode in SDK Timestamp & A/V Synchronization Hardware based 100ns high resolution clockAudio (Settings -> Audio) The native audio format of the 4K60 Pro is 48 kHz. We recommend setting OBS Studio's audio format to 48 kHz as well. If you do this, make sure your audio devices such as microphone and headphones are also set to 48 kHz in the Windows audio settings to reduce the chance of audio issues.In the color format NV12, OBS takes 4 pixels at a time, and calculates brightness for each pixel, then calculates an average chroma information for those 4 pixels, so you lose a tiny amount of color information. The advantage is that instead of using 4 pixels x 3 bytes (r,g,b) = 12 bytes for each pixel, there's only 6 bytes used (brightness x 4 ...Magewell Part Number: 11100 Four channel HD Capture Card HDMI x4 + embedded audio x4 4 channel capture card pcie capture card hdmi. The Pro Capture Quad HDMI is an ideal solution for applications that require the capture of quad HDMI sources plus embedded audio (x4) in real time. Includes Streaming video, BroadcastingIn OBS Studio (v0.15.4) you can specify: Color Format - this is equal to the chroma subsampling; YUV Color Space * - this is standard ** of the color video you are working with; YUV Color Range - this is video range of the resulting footage. All this settings applies on encoding.Sep 13, 2006 · Bem, eu tenho visto em muitos forums um problema que quase todo mundo está tendo com o novo Adobe Flash 9. O problema dele não sair som nenhum, só sai o vídeo. Bem, fui achar essa solução lá num forum americano, suei pra caramba pra achar e consertar aqui no meu pc, estava me estourando o crânio ... AI44 is a palettized YUV format with 8 bits per sample. Each sample contains an index in the 4 most significant bits (MSBs) and an alpha value in the 4 least significant bits (LSBs). The index refers to an array of YUV palette entries, which must be defined in the media type for the format. This format is primarily used for subpicture images.Mar 15, 2022 · CFITSIO - A FITS File Subroutine Library. CFITSIO is a library of C and Fortran subroutines for reading and writing data files in FITS (Flexible Image Transport System) data format. CFITSIO provides simple high-level routines for reading and writing FITS files that insulate the programmer from the internal complexities of the FITS format. • OBS • XSplit • vMix • VidBlaster • Wirecast • Microsoft Media Encoder • Adobe Flash Media Encoder • Any other DirectShow/V4L2 encoding/streaming software Video Capture Formats RGB32, RGB24, RGB16, RGB8, UYVY, YUY2, I420, YUV9, NV12 Driver Profiles Pre-defined properties that are applied to a specific video capture filter.Support for extraction of 3D format information Support for extraction of Sony/Canon DSLR time code Video Output Formats Support for output image resolutions up to 2048Ãâ€"2048 pixels Support for 4:2:0 8-bit output formats: NV12, I420, YV12 Support for 4:2:2 8-bit output formats: YUY2, YUYV, UYVYNewTek NDI integration for OBS Studio. Contribute to Palakis/obs-ndi development by creating an account on GitHub.Legacy Cards Driver Features. DirectShow-compatible VBI pins are provided on the Video Device Capture Filter. VBI data includes Vertical Interval Timecode (VITC) in both the NTSC and PAL worlds. In NTSC, line 21 Closed Captioning (although it is part of the video interval rather than true VBI data), is commonly treated as VBI data. Video editing programs will not recognize I420 format, that's why i need to convert it. Is there a specific tool for this? Super does not do this. Instead of RGB, there is BGR (same colors reversed - what is the difference?) and after conversion the video becomes FSV1 - not accessible in Corel VS for instance.. Quote. 23rd Feb 2013 15:48 #2.OBS Studio - Free and open source software for live streaming and screen recording - obs-studio/obs-ffmpeg-nvenc.c at master · obsproject/obs-studioGreek for color, the part of a video file or signal that encodes the color portion. List of Video Chromas. I420; I411; I422; YUYV; UYVY; RV24 (basically this is RGB24, 3 bytes, one for R, G, B)Example launch line. gst-launch-1. -v videotestsrc ! video/x-raw,format=YUY2 ! videoconvert ! autovideosink. This will output a test video (generated in YUY2 format) in a video window. If the video sink selected does not support YUY2 videoconvert will automatically convert the video to a format understood by the video sink.The USB Capture HDMI 4K Plus supports 4K inputs up to 60fps via HDMI 2.0 connectivity, capturing them at 30fps. 4K inputs with 4:4:4 or 4:2:2 color sampling are automatically converted to 4:2:0 for capture in the NV12 or I420 color space formats, to fit within the bandwidth available in the USB 3.0 standard.Video Capture format Support for video resolutions up to 2048x1080 Support capture format 4:2:0 8-bit: NV12, I420, YV12 Support capture format 4:2:2 8-bit: YUY2, YUYV, UYVY Support capture format 4:4:4 8-bit: V308, IYU2, V408, BGR24, BGR32 Support capture format 4:4:4 10-bit: V410, Y410 Sep 10, 2016 · In OBS Studio (v0.15.4) you can specify: Color Format - this is equal to the chroma subsampling; YUV Color Space * - this is standard ** of the color video you are working with; YUV Color Range - this is video range of the resulting footage. All this settings applies on encoding. Find changesets by keywords (author, files, the commit message), revision number or hash, or revset expression. Mar 15, 2022 · CFITSIO - A FITS File Subroutine Library. CFITSIO is a library of C and Fortran subroutines for reading and writing data files in FITS (Flexible Image Transport System) data format. CFITSIO provides simple high-level routines for reading and writing FITS files that insulate the programmer from the internal complexities of the FITS format. Show content of filename Report1.txt from thread Sterowniki USB WXP - Pendrive, HDD niewidoczne po podłączeniu do USB. HP DC5800 File uploaded on elektroda.pl -removed unsupported settings from UI (i420 is the only available color format and audio sample rate is 48khz)-refactored server communication that was being detected as invalid by some antimalware tools (thanks @mrbjaydubya) Windows-moved to release version of obs browser 1.22-moved same version of libdshowcapture (0.5.9) as obs studio 0.14.2Nv12 vs i420 vs i444 vs rgb. Nv12 vs yuv2. Nv12 vs yv12. Nv12 vs nv21. Obs color format nv12 vs rgb. Color format nv12 vs rgb. Compare Search ( Please select at least 2 keywords ) Most Searched Keywords. 5kva rack mounted ups 1 . Precast pool coping for sale 2 . Architectural cast stone veneer 3 .RGB color format is straight up not having a good time on my computer. With this format, skipped frames due to encoding lag is extremely high (>90%) (you can see this stat in OBS via View > Docks > Stats). NV12. Back to the default NV12, everything is fine. No skipped frames, no audio sync issues, no slow-motion video playback. I420For color images, this means making sure that the color format is BGRA8 and that the bitmap alpha mode is premultiplied. For depth or infrared frames, each scanline is processed to convert the depth or infrared values to a psuedocolor gradient, using the PsuedoColorHelper class that is also included in the sample and listed below.The best is YUY2 or UYVY (native 4:2:2 YUV formats) if you're going to encode as MPEG. YV12 and I420 are virtually identical and are 4:2:0 YUV format, only recommended if you're capturing single-field (x240 or x288). Avoid all the others. Quote. 20th Jan 2004 15:05 #4.GST_VIDEO_FORMAT_UNKNOWN. Unknown or unset video format id GST_VIDEO_FORMAT_I420. planar 4:2:0 YUV GST_VIDEO_FORMAT_YV12. planar 4:2:0 YVU (like I420 but UV planes swapped)For HD video you use a YUV color space of BT.709 with a partial color range (aka 16-235). End of discussion. BT.601 is from the days of NTSC SD TV and should no longer be used. The "full" range is a PC-ism around sRGB video and technically shouldn't be used in broadcast video.Video editing programs will not recognize I420 format, that's why i need to convert it. Is there a specific tool for this? Super does not do this. Instead of RGB, there is BGR (same colors reversed - what is the difference?) and after conversion the video becomes FSV1 - not accessible in Corel VS for instance.. Quote. 23rd Feb 2013 15:48 #2.For streaming, the preferred video format is set to NV12, unless the color format is set to I420/NV12 already. To my knowledge, only obs-x264 and obs-ffmpeg-nvenc actually use this. jim_nvenc doesn't specify a get_video_info function, and enc-amf uses whatever is in the video info (but it can only do NV12 anyway due to hardware restrictions).A color space is a specific organization of colors.In combination with color profiling supported by various physical devices, it supports reproducible representations of color -- whether such representation entails an analog or a digital representation. A color space may be arbitrary, i.e. with physically realized colors assigned to a set of physical color swatches with corresponding assigned ...The new USB Capture SDI 4K Plus captures 4K video at 30 frames per second over its 6Gbps SDI interface. 4K inputs with 4:4:4 or 4:2:2 color sampling are automatically converted to 4:2:0 for capture in the NV12 or I420 color space formats, to fit within the bandwidth available in the USB 3.0 standard.Like existing Magewell USB video ingest solutions, the newest USB Capture Plus models enable ...I tried creating a different input file, i.e., an OBS file with: I420 Color Format; Partial Color Range; Neither were particularly successful post-rendering. I may be stuck with the options I have, meaning I might need to alter the PowerPoint itself. Kind regards, VRUnlike XviD and MS H.263, the Helix YUV Codecs can convert both to and from I420 and YV12. The codec responsible for handling each format is selected automatically. Changes in HelixRC3 1.2/1.3 - Modified I420 Codec for IYUV Colorspace (same as I420) and added the "iyuvvfw.dll" Codec for both Versions.Feb 28, 2022 · Pixel is the smallest square dot on the monitor screen which emits a specific color. Resolution is the total number of pixels that can be displayed on a monitor. Number of pixels matter a lot when we are talking about image or video clarity. More pixels in an image forms a much sharper image. OBS Studio - Free and open source software for live streaming and screen recording - obs-studio/obs-ffmpeg-nvenc.c at master · obsproject/obs-studioAccepts YUV-I420 format and produces EGLStream (RGBA) nvegltransform . Video transform element for NVMM to EGLimage (supported with nveglglessink only) Aug 2013. Location. Central Germany. Yes, might be. YV12 is a very basic color format, yet, Microsoft YUV converter does not handle it because it is planar. You have to assign a codec which will actively convert it. There are several excamples of VfW codecs providing such a conversion in addition, e.g. Xvid or ffdshow 's VfW codec.A good solution would be to add ffmpeg command before the codec to fix the issue: -vf scale=out_color_matrix=bt709,format=yuv444p. Besides, you were wrong when you said that exact true lossless was not possible. It is possible. Take some 8-bit png images and convert them to video: ffmpeg -y -r 60 -i %01d.png -vf scale=out_color_matrix=bt709 ...54. When selecting a topic in help, the system comes back with 'Cannot format topic' message. 55. The any client using the Help System core dumps when scrolling line by line through a topic an author has put xxxxxxx 56. The traversal highlight changes color. Also it clips the first pixel of the hyperlink text. 57. Therefore the colour part of the video signal that the S-Video input is expecting will be missing on the chrominance cable and ignored from the luminance cable. To get a colour picture from the VHS VCR you will need to connect a composite lead into the PC, if it has one, or convert the composite to S-Video with a converter. Mark. Denon AVR-X4500H.pls ignoreUSB Capture HDMI 4K Plus supports 4Kp60 video input. However, limited by the bandwidth of USB 3.0, the maximum frame rate can only reach 30 fps when capturing 4K video in NV12 color format. What's the meaning of different statuses of indicator light? Please refer to this article: Status of the Indicator Light on USB Capture (Plus) device.EXPAND FOR IMPORTANT LINKS & INFO Welcome to my OBS Studio MASTER CLASS - The most in-depth and comprehensive OBS Studio tutorial course EVER MADE. ...The Pro Capture Hexa CVBS captures six channels of CVBS video and six unbalanced stereo audio pairs over a PCI Express 2.0 x1 host interface.Magewell's second generation of analog PCIe capture card, enables users to cost-effectively convert analog source signals into high-quality digital video and audio data for recording or processing with the latest software.Garlic Crispy Potato Skewers. 0. 5.03. ( 3905 Reviews) Super easy. Fairly cheap. The perfect addition to any meat, fish or plant based dish, these British Gems are little golden nuggets of deliciousness! Prep. 10m. Independent cropping, aspect ratio, color format, resolution, frame rate, de-interlacing and color adjustment settings for each individual stream Ultra Low Latency Support Latency of 64 video lines Partial notification mode in SDK Timestamp & A/V Synchronization Hardware based 100ns high resolution clockBuy Magewell USB Capture SDI 4K Plus featuring Capture up to DCI 4K to Your Computer, Supports RGB 4:4:4, YCbCr 4:4:4 & 4:2:2, 6G-SDI Input & Loop-Through, 3.5mm Audio I/O (Capture/Extract), USB 3.0 Computer Interface, Works with Windows, Mac, Linux, Chrome, 10-Bit /12-Bit Color Depth, Capable of Operating 24/7, Scaling, Multiple Color Spaces, and More. Review Magewell nullIndependent cropping, aspect ratio, color format, resolution, frame rate, de-interlacing and color adjustment settings for each individual stream Ultra Low Latency Support Latency of 64 video lines Partial notification mode in SDK Timestamp & A/V Synchronization Hardware based 100ns high resolution clockSep 08, 2020 · How to Add Motion Graphics in OBS. If you’re able to create video content in a suite like Premiere Pro or After Effects then you can use those graphics in OBS. While you won’t be able to directly edit or change the content in OBS, you can make things like lower thirds or animated logos and render them out to an .MP4 or other video file to ... Supports 4K inputs up to 60fps via HDMI 2.0 connectivity. Capturing at 30fps. 4K inputs with 4:4:4 or 4:2:2 color sampling are automatically converted to 4:2:0 for capture in the NV12 or I420 color space formats. To fit within the bandwidth available in the USB 3.0 standard.Video ID : 0 Format : RGB Codec ID : ULRG Codec ID/Info : Ut Video Lossless Codec Codec ID/Hint : Ut Video Duration : 16 s 200 ms Bit rate : 111 Mb/s Width : 2 560 pixels Height : 1 440 pixels Display aspect ratio : 16:9 Frame rate : 30.000 FPS Color space : RGB Bit depth : 8 bits Bits/(Pixel*Frame) : 1.002 Stream size : 214 MiB (95%)Which color format should I use RGB or nv12? Which color format should i use RGB, NV12, I420 or I444 ? If you don't know what they mean, use NV12. It's most compatible with players. Yea don't change that stuff unless you know what you are doing. What are the different color settings in OBS Studio?I420 yuv pixel format ADVERTISEMENTS These formats are identical to YV12 except that the U and V plane order is reversed. They comprise an NxN Y plane followed by (N/2)x (N/2) U and V planes. Full marks to Intel for registering the same format twice and full marks to Microsoft for not picking up on this and rejecting the second registration.C++ (Cpp) x264_param_apply_profile - 30件のコード例が見つかりました。すべてオープンソースプロジェクトから抽出されたC++ (Cpp)のx264_param_apply_profileの実例で、最も評価が高いものを厳選しています。 So yeah, I've been using Dxtory for about a year or so and I love it, such a good recording software. But now I've been getting crashes and freezes when ever I record Smite, what I usually do is that I start to record but stop it after a few seconds so the audio can sync up, otherwise I've noticed it gets out of sync. There is some debate over which format is better for frame grabbers: YUV or RGB. The answer depends on the application. RGB formats are usually straightforward: red, green, and blue with a given pixel size. RGB24 is the most common, allowing 8 bits and a value of 0-255 per color component. RGB frame grabbing is best if your image processing and ... Search: Obs Color Format Reddit. About Obs Reddit Format ColorIt can be helpful to think of NV12 as I420 with the U and V planes interleaved. Here is a graphical representation of NV12. What is nv12 YUV pixel format? NV12 yuv pixel format. The NV12 image format is commonly found as the native format from various machine vision, and other, video cameras.GST_VIDEO_FORMAT_UNKNOWN. Unknown or unset video format id GST_VIDEO_FORMAT_I420. planar 4:2:0 YUV GST_VIDEO_FORMAT_YV12. planar 4:2:0 YVU (like I420 but UV planes swapped)The chroma subsampling format of your input must match your desired output chroma subsampling format (libx265 will not perform any chroma subsampling conversion), and it must be supported by the HEVC profile you have specified. i400 (4:0:0 monochrome) - Not supported by Main or Main10 profiles; i420 (4:2:0 default) - Supported by all HEVC profiles My gif making process for LaifuBot gifs. GitHub Gist: instantly share code, notes, and snippets.I usually use Dxtory and OBS together. I capture the game with Dxtory, outputting to both a file and a directshow camera, and then I use the directshow camera in OBS. By doing it this way I usually don't sacrifice my framerate or performance and it doesn't feel like I'm streaming or recording at all. Search: Yuv Nv12 Sample. About Sample Yuv Nv12Independent cropping, aspect ratio, color format, resolution, frame rate, de-interlacing and color adjustment settings for each individual stream Enables multiple output streams without the need for additional physical input channels thus reducing hardware requirements. Video Capture Formats. RGB32, RGB24, RGB16, RGB8, UYVY, YUY2, I420, YUV9, NV12The native audio format of the 4K60 Pro is 48 kHz. The sample accepts an uncompressed image in the NV12 color format; To run the sample, you need to convert your BGR/RGB image to NV12; To do this, you can use one of the widely available tools such as FFmpeg* or GStreamer*. Sample Output. --output: The generated resnet50_aipp.The color ghosting only appears while recording in 3840x2160, and not in FullHD recordings. I use standard settings for OBS which means: simple mode, lossless quality, 3840x2160. From what I know OBS uses UT.video as codec for lossless recording. The captured sources are video game consoles connected via HDMI.Frame Rate of Live Captur YVU12 (YV12/I420): 25% less data than YUY2 in exchange for slightly more color bleeding vertically; this is the color space of MPEG-1. There is no difference in luminance The 5MP (2592 x 1944) resolution Dino-Lite models make use of one of two codecs (coder-decoder) to transmit the live image from the device to a ...YV12, IYUV , I420, etc... are 4:2:0 too. They are just slightly different ways of arranging and storing the data. 4:2:0 just means the color information, the U,V planes have half width, half height . e.g. for 1920x1080 , the color information (each U, V plane) is only 960x540 But for NVEnc, and 4:2:0 encoding - it expects NV12 pixel format .Independent cropping, aspect ratio, color format, resolution, frame rate, de-interlacing and color adjustment settings for each individual stream Enables multiple output streams without the need for additional physical input channels thus reducing hardware requirements. Video Capture Formats. RGB32, RGB24, RGB16, RGB8, UYVY, YUY2, I420, YUV9, NV12OBS Studio - Free and open source software for live streaming and screen recording - obs-studio/obs-ffmpeg-nvenc.c at master · obsproject/obs-studioBest Advanced Settings: The advanced menu of OBS Studio contains settings for process priority, rendering, color format, color space, audio monitoring devices, and more; Leave the process priority at above normal and the renderer on Direct3D 11; Code format should be set to NV12, YUV color space to 709, and YUV color range to FULL for the bestPixel Format Description; YUY2: As described in 4:2:2 Video Pixel Formats, except that two lines of output Cb and Cr samples are produced for each actual line of 4:2:0 Cb and Cr samples.The second line of each pair of output lines is generally either a duplicate of the first line or is produced by averaging the samples in the first line of the pair with the samples of the first line of the ...YUV formats fall into two distinct groups, the packed formats where Y, U (Cb) and V (Cr) samples are packed together into macropixels which are stored in a single array, and the planar formats where each component is stored as a separate array, the final image being a fusing of the three separate planes.. In the diagrams below, the numerical suffix attached to each Y, U or V sample indicates ...Dec 25, 2019 · Using them may result in a solid color screen, washed out view, or just add more resource load to your system as the driver is taking the 4:2:0 color feed and converting it to the emulated RGB mode and then OBS has to convert it back to NV12 for your stream. Digital video is often encoded in a YUV format. This article explains the general concepts of YUV video, along with some terminology, without going deeply into the mathematics of YUV video processing. If you have worked with computer graphics, you are probably familiar with RGB color. An RGB color is encoded using three values: red, green, and ...r640 manualinu taisho raises inuyasha fanfictionprobationary licensed drivers within the first year may operate a motor vehiclecloudera hive jdbc connection stringkevlar tubesano ang paksa ng talumpati brainlystable baselines3 make atarideep filmpower bi lookup value based on another column - fd